查看: 391|回复: 3

[4K电影] 厉害了,我的国(电影版) Amazing.China.2018.4K.2160p.YK.WEB-DL.x265.AAC-FLTTH.mp4 4.99G

[复制链接]
发表于 2018-9-16 09:35:59 | 显示全部楼层 |阅读模式
00131.JPG 00132.JPG 00133.JPG 00134.JPG 00135.JPG 00136.JPG
  1. General
  2. Complete name                            : Amazing.China.2018.4K.2160p.YK.WEB-DL.x265.AAC-FLTTH.mp4
  3. Format                                   : MPEG-4
  4. Format profile                           : Base Media
  5. Codec ID                                 : isom (isom/iso2/mp41)
  6. File size                                : 4.99 GiB
  7. Duration                                 : 1 h 26 min
  8. Overall bit rate mode                    : Variable
  9. Overall bit rate                         : 8 209 kb/s
  10. Writing application                      : Lavf58.17.101

  11. Video
  12. ID                                       : 1
  13. Format                                   : HEVC
  14. Format/Info                              : High Efficiency Video Coding
  15. Format profile                           : Main@L5@Main
  16. Codec ID                                 : hev1
  17. Codec ID/Info                            : High Efficiency Video Coding
  18. Duration                                 : 1 h 26 min
  19. Bit rate                                 : 8 077 kb/s
  20. Width                                    : 3 840 pixels
  21. Height                                   : 1 622 pixels
  22. Display aspect ratio                     : 2.35:1
  23. Frame rate mode                          : Constant
  24. Frame rate                               : 24.000 FPS
  25. Color space                              : YUV
  26. Chroma subsampling                       : 4:2:0
  27. Bit depth                                : 8 bits
  28. Bits/(Pixel*Frame)                       : 0.054
  29. Stream size                              : 4.91 GiB (98%)
  30. Color range                              : Limited
  31. Color primaries                          : BT.709
  32. Transfer characteristics                 : BT.709
  33. Matrix coefficients                      : BT.709

  34. Audio
  35. ID                                       : 2
  36. Format                                   : AAC
  37. Format/Info                              : Advanced Audio Codec
  38. Format profile                           : LC
  39. Codec ID                                 : mp4a-40-2
  40. Duration                                 : 1 h 26 min
  41. Bit rate mode                            : Variable
  42. Bit rate                                 : 125 kb/s
  43. Maximum bit rate                         : 128 kb/s
  44. Channel(s)                               : 2 channels
  45. Channel positions                        : Front: L R
  46. Sampling rate                            : 48.0 kHz
  47. Frame rate                               : 46.875 FPS (1024 SPF)
  48. Compression mode                         : Lossy
  49. Stream size                              : 78.0 MiB (2%)
  50. Default                                  : Yes
  51. Alternate group                          : 1

复制代码
电影简介:
    本片以习近平新时代中国特色社会主义思想为内在逻辑,展示了在创新、协调、绿色、开放和共享的新发展理念下中国这五年的伟大成就,展现了中国人民在全面建设小康征程上的伟大奋斗,彰显了以习近平同志为核心的党中央的正确领导。凝聚起全党全国人民的磅礴力量,为实现中华民族伟大复兴的中国梦不断前进。
    中国共产党第十九次全国代表大会绘制了中国未来发展的宏伟蓝图,由中央电视台、中国电影股份有限公司联合出品的电影《厉害了,我的国》结合十九大精神,将祖国发展和成就以纪录片的形式第一次呈现在大银幕上,全面反映党的十八大以来中国取得了改革开放和社会主义现代化建设的历史性成就。电影《厉害了,我的国》是一部非常有新意的充满正能量的纪录电影。

下载地址:
https://pan.baidu.com/s/1lDl_v3o9WSWuQTb2yOlyTg

发表于 2018-9-17 09:02:54 | 显示全部楼层
回复 支持 反对

使用道具 举报

发表于 2018-9-20 17:26:53 | 显示全部楼层
回复 支持 反对

使用道具 举报

发表于 2018-9-23 11:45:39 | 显示全部楼层
回复 支持 反对

使用道具 举报

您需要登录后才可以回帖 登录 | 注册会员

本版积分规则

小黑屋|手机版|Archiver|国语影视社区 ( 黔ICP备15011498号-3 )

Powered by Discuz! X3.4© 2001-2013 Comsenz Inc.

快速回复 返回顶部 返回列表