查看: 845|回复: 2

[4K电影] 唐人街探案2 Detective.Chinatown.Vol.II.2018.4K.2160p.QY.WEB-DL.x265.AAC-FLTTH.mp4 4.3

[复制链接]
发表于 2018-4-26 13:22:56 | 显示全部楼层 |阅读模式
SS_00013.jpg SS_00014.jpg SS_00015.jpg SS_00016.jpg SS_00017.jpg SS_00018.jpg
  1. General
  2. Complete name                            : Detective.Chinatown.Vol.II.2018.4K.2160p.QY.WEB-DL.x265.AAC-FLTTH.mp4
  3. Format                                   : MPEG-4
  4. Format profile                           : Base Media
  5. Codec ID                                 : isom (isom/iso2/mp41)
  6. File size                                : 4.36 GiB
  7. Duration                                 : 2 h 0 min
  8. Overall bit rate mode                    : Variable
  9. Overall bit rate                         : 5 171 kb/s
  10. Writing application                      : Lavf58.13.100

  11. Video
  12. ID                                       : 1
  13. Format                                   : HEVC
  14. Format/Info                              : High Efficiency Video Coding
  15. Format profile                           : Main@L5@Main
  16. Codec ID                                 : hev1
  17. Codec ID/Info                            : High Efficiency Video Coding
  18. Duration                                 : 2 h 0 min
  19. Bit rate                                 : 4 973 kb/s
  20. Width                                    : 3 840 pixels
  21. Height                                   : 1 600 pixels
  22. Display aspect ratio                     : 2.40:1
  23. Frame rate mode                          : Constant
  24. Frame rate                               : 24.000 FPS
  25. Color space                              : YUV
  26. Chroma subsampling                       : 4:2:0
  27. Bit depth                                : 8 bits
  28. Bits/(Pixel*Frame)                       : 0.034
  29. Stream size                              : 4.20 GiB (96%)

  30. Audio
  31. ID                                       : 2
  32. Format                                   : AAC
  33. Format/Info                              : Advanced Audio Codec
  34. Format profile                           : LC
  35. Codec ID                                 : mp4a-40-2
  36. Duration                                 : 2 h 0 min
  37. Bit rate mode                            : Variable
  38. Bit rate                                 : 192 kb/s
  39. Channel(s)                               : 2 channels
  40. Channel positions                        : Front: L R
  41. Sampling rate                            : 44.1 kHz
  42. Frame rate                               : 43.066 FPS (1024 SPF)
  43. Compression mode                         : Lossy
  44. Stream size                              : 164 MiB (4%)
  45. Default                                  : Yes
  46. Alternate group                          : 1

复制代码
电源简介:
    《唐人街探案2》是唐人街探案系列电影的第二辑,由陈思诚执导,王宝强、刘昊然、肖央、王迅、刘承羽、尚语贤、元华、妻夫木聪、迈克尔·皮特主演的动作片。该片讲述了唐仁为巨额奖金欺骗秦风到纽约参加世界名侦探大赛,比赛的内容是寻找杀害唐人街教父七叔的孙子的凶手。两人再次组合侦破案件,并冒着生命危险闹翻纽约的故事。该片于2018年2月16日在中国大陆上映。

剧情简介:
    秦风(刘昊然饰)接到唐仁(王宝强饰)的邀请来纽约参加其与阿香的婚礼。壕气逼人的唐仁迎接秦风,极尽招摇。岂料“婚礼”是唐仁为巨额奖金而参加的世界名侦大赛,比赛的内容是寻找杀害唐人街教父七叔的孙子的凶手。受骗的秦风怒极欲走,却被纽约华人刑警陈英送来的讯息所吸引。七叔孙子的死法离奇,寻人上升为悬赏缉凶。“名侦探”们各显“其能”,鸡飞狗跳。
    众人调查的同时另一起案件发生,作案手法极其相似。原本锁定的凶手竟有了不在场证明,秦风不禁对自己的推理产生了怀疑。第三起案件发生连环案件。秦风、唐仁二人再次披挂,摆脱各路纠缠,闹翻纽约,几欲接近真相。第四起,与凶手失之交臂,诡计呼之欲出。真凶伏法,动机令人不寒而栗。看似完美结案的背后却隐藏着另一个发人深省的谜题。

下载地址:
https://pan.baidu.com/s/15s5shuEaOjbJVZIBnwkkSA

发表于 2018-8-6 09:39:02 | 显示全部楼层
回复 支持 反对

使用道具 举报

发表于 2018-9-23 03:16:07 | 显示全部楼层
回复 支持 反对

使用道具 举报

您需要登录后才可以回帖 登录 | 注册会员

本版积分规则

小黑屋|手机版|Archiver|国语影视社区 ( 黔ICP备15011498号-3 )

Powered by Discuz! X3.4© 2001-2013 Comsenz Inc.

快速回复 返回顶部 返回列表