查看: 739|回复: 0

[4K电影] 魔国志I之黄巾之乱 Fantasy.Of.Three.Kindoms.2018.4K.2160p.QY.WEB-DL.x265.AAC-FLTTH.mp4 3.

[复制链接]
发表于 2018-4-26 13:10:38 | 显示全部楼层 |阅读模式
SS_00001.jpg SS_00002.jpg SS_00003.jpg SS_00004.jpg SS_00005.jpg SS_00006.jpg
  1. General
  2. Complete name                            : Fantasy.Of.Three.Kindoms.2018.4K.2160p.QY.WEB-DL.x265.AAC-FLTTH.mp4
  3. Format                                   : MPEG-4
  4. Format profile                           : Base Media
  5. Codec ID                                 : isom (isom/iso2/mp41)
  6. File size                                : 3.25 GiB
  7. Duration                                 : 1 h 32 min
  8. Overall bit rate mode                    : Variable
  9. Overall bit rate                         : 5 028 kb/s
  10. Writing application                      : Lavf58.10.100

  11. Video
  12. ID                                       : 1
  13. Format                                   : HEVC
  14. Format/Info                              : High Efficiency Video Coding
  15. Format profile                           : Main@L5@Main
  16. Codec ID                                 : hev1
  17. Codec ID/Info                            : High Efficiency Video Coding
  18. Duration                                 : 1 h 32 min
  19. Bit rate                                 : 4 960 kb/s
  20. Width                                    : 3 840 pixels
  21. Height                                   : 1 608 pixels
  22. Display aspect ratio                     : 2.40:1
  23. Frame rate mode                          : Constant
  24. Frame rate                               : 24.000 FPS
  25. Color space                              : YUV
  26. Chroma subsampling                       : 4:2:0
  27. Bit depth                                : 8 bits
  28. Bits/(Pixel*Frame)                       : 0.033
  29. Stream size                              : 3.21 GiB (99%)

  30. Audio
  31. ID                                       : 2
  32. Format                                   : AAC
  33. Format/Info                              : Advanced Audio Codec
  34. Format profile                           : HE-AAC / LC
  35. Format settings                          : Implicit
  36. Codec ID                                 : mp4a-40-2
  37. Duration                                 : 1 h 32 min
  38. Bit rate mode                            : Variable
  39. Bit rate                                 : 62.8 kb/s
  40. Maximum bit rate                         : 66.8 kb/s
  41. Channel(s)                               : 2 channels
  42. Channel positions                        : Front: L R
  43. Sampling rate                            : 44.1 kHz / 22.05 kHz
  44. Frame rate                               : 21.533 FPS (1024 SPF)
  45. Compression mode                         : Lossy
  46. Stream size                              : 41.6 MiB (1%)
  47. Default                                  : Yes
  48. Alternate group                          : 1

复制代码
电源简介:
    《魔国志I之黄巾之乱》是由回宇执导,张志成、张潇制片,王峥、何育骏、侯晓童、张贺茗、许晓诺、容尔甲主演的魔幻古装网络电影。该片于2018年3月7日在爱奇艺上映。

剧情简介:
    光和七年,宦官当道,以张角为首的黄巾军揭竿而起,其弟张梁率兵打响头阵。并与曹操展开一场恶战战。曹操寡不敌众,幸得仙人左慈以五雷天星阵扭转战事,指引曹操找到命定有缘人刘备,方可救世。由此,放荡不羁的刘备、背负命案的关羽、冰冷御姐郭伽,刁蛮萝莉香香,结盟成救世战队。灭门之乱、团队猜忌、法术修炼、屠龙之祸,众人在磨难面前不忘初心,摒弃前嫌。在大战中,张角使出风遁天书,众人陷入幻境,最终香香感应到曹操的心声,破除五感死去,张角也因被幻术反噬而亡。天下归于太平,但余下的几本天书仍旧下落不明,然这一切都被董卓看在眼中,新的战事,将一触即发。

下载地址:
https://pan.baidu.com/s/1Q8Oo8UFe0Sl15pGtzGjOBQ

您需要登录后才可以回帖 登录 | 注册会员

本版积分规则

小黑屋|手机版|Archiver|国语影视社区 ( 黔ICP备15011498号-3 )

Powered by Discuz! X3.4© 2001-2013 Comsenz Inc.

快速回复 返回顶部 返回列表