查看: 793|回复: 5

[4K电影] 祖宗十九代 The.Faces.Of.My.Gene.2018.4K.2160p.QY.WEB-DL.x265.AAC-FLTTH.mp4 3.32G

[复制链接]
发表于 2018-4-26 13:16:15 | 显示全部楼层 |阅读模式
SS_00007.jpg SS_00008.jpg SS_00009.jpg SS_00010.jpg SS_00011.jpg SS_00012.jpg
  1. General
  2. Complete name                            : The.Faces.Of.My.Gene.2018.4K.2160p.QY.WEB-DL.x265.AAC-FLTTH.mp4
  3. Format                                   : MPEG-4
  4. Format profile                           : Base Media
  5. Codec ID                                 : isom (isom/iso2/mp41)
  6. File size                                : 3.32 GiB
  7. Duration                                 : 1 h 35 min
  8. Overall bit rate                         : 4 989 kb/s
  9. Writing application                      : Lavf58.13.100

  10. Video
  11. ID                                       : 1
  12. Format                                   : HEVC
  13. Format/Info                              : High Efficiency Video Coding
  14. Format profile                           : Main@L5@Main
  15. Codec ID                                 : hev1
  16. Codec ID/Info                            : High Efficiency Video Coding
  17. Duration                                 : 1 h 35 min
  18. Bit rate                                 : 4 921 kb/s
  19. Width                                    : 3 840 pixels
  20. Height                                   : 1 608 pixels
  21. Display aspect ratio                     : 2.40:1
  22. Frame rate mode                          : Constant
  23. Frame rate                               : 24.000 FPS
  24. Color space                              : YUV
  25. Chroma subsampling                       : 4:2:0
  26. Bit depth                                : 8 bits
  27. Bits/(Pixel*Frame)                       : 0.033
  28. Stream size                              : 3.27 GiB (99%)

  29. Audio
  30. ID                                       : 2
  31. Format                                   : AAC
  32. Format/Info                              : Advanced Audio Codec
  33. Format profile                           : HE-AAC / LC
  34. Format settings                          : Implicit
  35. Codec ID                                 : mp4a-40-2
  36. Duration                                 : 1 h 35 min
  37. Bit rate mode                            : Constant
  38. Bit rate                                 : 62.9 kb/s
  39. Channel(s)                               : 2 channels
  40. Channel positions                        : Front: L R
  41. Sampling rate                            : 44.1 kHz / 22.05 kHz
  42. Frame rate                               : 21.533 FPS (1024 SPF)
  43. Compression mode                         : Lossy
  44. Stream size                              : 42.8 MiB (1%)
  45. Default                                  : Yes
  46. Alternate group                          : 1

复制代码
电源简介:
    《祖宗十九代》是北京德云社文化传播有限公司出品的喜剧片,由郭德纲执导,岳云鹏、林志玲领衔主演,吴秀波、吴京、王宝强、董成鹏、张国立、于谦等特邀出演。该片讲述了立志成为作家却一事无成的貌丑青年贝小贝,在经历了一趟奇幻之旅后重拾自信,勇敢面对人生的故事。该片于2018年2月16日在中国内地上映。

剧情简介:
    贝小贝(岳云鹏饰)因外貌不符合主流审美,在生活中屡屡碰壁,某天他鼓起勇气向一直暗恋的女神莉娅(林志玲饰)表白却惨遭拒绝,贝小贝开始怀疑人生并把所有责任归咎于祖先的基因不够完美,当意外翻开家谱并通过家谱穿越至祖宗梅办法(吴京饰)、梅前途(吴秀波饰)、梅幸福(欧汉声饰)、梅西望(杜淳饰)所在的年代后,贝小贝决心通过篡改祖宗的姻缘,来调整自己的基因,让自己变美。

下载地址:
https://pan.baidu.com/s/1s1juuDWvkoLOyBfhvQ5sBQ

发表于 2018-4-27 09:19:03 | 显示全部楼层
回复 支持 反对

使用道具 举报

发表于 2018-5-9 17:30:17 | 显示全部楼层
回复 支持 反对

使用道具 举报

发表于 2018-5-9 17:31:27 | 显示全部楼层
回复 支持 反对

使用道具 举报

发表于 2018-10-14 14:44:27 | 显示全部楼层
回复 支持 反对

使用道具 举报

您需要登录后才可以回帖 登录 | 注册会员

本版积分规则

小黑屋|手机版|Archiver|国语影视社区 ( 黔ICP备15011498号-3 )

Powered by Discuz! X3.4© 2001-2013 Comsenz Inc.

快速回复 返回顶部 返回列表